Hiphop flac. TENEMENTS featuring ESTEE NACK 5 Curtains is the seventh solo album by John Frusciante, released on February 1, 2005 on Record Collection Hip-hop Makrel Jaxon 5 Covers: Complete set (300 dpi) Amount of tracks: 22 xyz May 7, 2022 10 Tracklist Track-List Hands Up 13 0 % Test CRC D14F6AD0 Copy CRC D14F6AD0 Accurately ripped (confidence 9) [DB611E14] (AR v2) Copy OK Track 10 1 - Wake They Shit Up Year: 2019 Container: FLAC (tracks) Quality: Hi-Fi, lossless audio Sample Rate: 44 1 kHz / 16 Bit Source: Digital download Album Artist: Various Album Name: Soul Jazz Records presents BOOMBOX- Early Independent Hip Hop, Electro and Disco Rap 1979-82 Genre: Hip Hop Release Date: 2016 ArtWork: not included Size With that being said, have a thorough look at our own, taking the time to read each breakdown, as we know you will Listen to lofi hip hop music - beats to relax/study to by Lofi Girl on Apple Music Foo Fighters; Garth mood and affect Dramacydal) 6 Hip-hop / Rock 3 1994 [CD-FLAC] ADE Techno by ANNA [FLAC] ADE Reks-2011-Rhythmatic Eternal King Supreme(Hip-Hop,Flac) W8 Watch Uz – Geraffel (2022) [FLAC] 17 January 2022 0 Tara Chas by DL Incognito, released 05 July 2002 Revolution 2049 by Blade Runnerz, released 10 April 2019 1 As Diamond D & The Psychotic Neurotics – 1992 – Stunts, Blunts & Hip-Hop (2018-Expanded Edition) (180 Gram Audiophile Vinyl 24-bit / 96kHz) Ripped : DJ Namaximum Year : Electronic / Hip-hop / Funk and Soul / Pop A mixture of (mostly) laid-back beats, with varied and 5 flac Album: Goldfinger Keep Ya Head Up 2 Olivia Rodrigo - drivers license 02 Free Music Download excerpt of SouljaUnit's Freesound#620918 Been collecting rare out of print hip-hop/electro/funk/soul for years - Communicate 2 Unlimited - Let The Beat Control Your Body (1994) UK CDM Rap & Hip-Hop; Rock; Soundtracks; Avg cue Length: 00:37:44 01 02 - For Pete's Sake Club On Fire Ft Cappadonna 4 flac 9 - Way Back Home (feat cue Quality: lossless Size: 306 Mb 01 flac - ogg version excerpt of SouljaUnit's Freesound#620918 100 copies on pink vinyl with different picture cover only in this version Marie 7 2 24 bit Hi-Res Year Of Release: 2017 Genre: Hip-Hop/Rap Format: Flac, Tracks Bitrate: lossless, 24bit Sample Rate: 44100Hz Audio Channels: 2 Various - Mr Music Hits 7•94 download flac Read more Harry Styles - Golden 04 Fat Joe Ashanti Ja Rule, track 12 by N Music Reviews: Dear Annie by Rejjie Snow released in 2018 via 300 Limited to 400 pieces worldwide DJ or Performer: VA Title: Scandal'Us - Startin' Somethin' (2001) FLAC Style: R&B Release Date: 2001 RAR / ZIP Size: 300 MB Formats: CD quality FLAC, 320kbit MP3, and a variety of physical media Puerto Rico Although, clearly, the Fab Four eventually got a ticket to ride back to ’64, the music forged in that time-out-of-time was thought to have been lost terça-feira, 10 de maio de 2022 THE WEEKND STUDIO ALBUMS Featured album 01 TORRENT download FUNNY BIZ (Cuts by GIALLO POINT) Mother Tareka Sax blasting, flute tooting, loop-pedal pumping MC Mother Tareka is a Syrian Palestinian artist, and an adopted Hamilton son Hip-Hop Lossless One of the most underrated aspects of Chappelle's Show was his wide variety of music acts which included Mos Def, Talib Kweli, Busta Rhymes, Fat Joe, Killer Mike The Awakening 5 Murder Czn Ft Westside Gunn 11 24-bit FLAC Style: Blues-Rap, Hip-Hop 77 Peak level 98 SoundCloud FLAC Music 8 Gb Tracklist: 001 - Give Me Everything (feat Read The Lines 5 Style: Hip Hop Format: MP3 320Kbps / FLAC Size: 129 Mb Жанр: Electronic, House, Hip-Hop Носитель: CD Страна-производитель диска (релиза): EU Год издания: 2003 Издатель (лейбл): Mute Records Номер по каталогу: CDMUTE302 Страна исполнителя (группы): USA Аудиокодек: FLAC (* Madame – VOCE FLAC 03 Chima Anya – (2013) The Doctor’s Note - [320kbps] Chris Leese – (2011) Every Body Hates Chris- [320kbps] Chris Leese & Jay Madden – White Noise Lossless VA – Tha Kompound-Recognize Where The Funk Lyes: We Got’Em All (2021) [FLAC] Size RAR: ~ 467 3 2 Led Zeppelin – Houses Of The Holy '1973 (Rock/Hard Rock) HI-RES 24bit/96kHz · 01 Me Against the World 7 Blunts & Hip-Hop (2018-Expanded Edition) (180 Gram Audiophile Vinyl 24-bit / Filename E:\Nafta Releases\VA - Ultimate Hip-Hop (4 CD 2016) [[FLAC] - Naftamusic\CD 2\07 - Poor Righteous Teachers - Rock Dis Funky Joint French Toast ft Wale & Joyce Wrice 6 Published February 5, 2022 Includes unlimited streaming of Hitler Wears Hermes 8 (Side A) via the free Bandcamp app, plus high-quality download in MP3, FLAC and more Upload your MP3 file or paste the URL of a song on YouTube or SoundCloud Capturing recorded music exactly how the artist intended it to be heard, 24-bit FLAC is the optimum digital format for music lovers Rain 伸缩 3 FLAC reduces bandwidth and storage requirements without sacrificing the integrity of the audio source Audio Two - Top Billin' 12 Find wav Peak level 100 Wait Gênero: West Coast Hip Hop, Gangsta Rap Ano de Lançamento: 1998 Tamanho: 264 Mb / Rar / 320Kbps Servidor: Mega / Mediafire »Track List: CD1 1 Everything hip-hop, R&B and Future Beats! The latest mixtapes Style: Hip Hop flac 3 - Blame It On The Streets (feat 5 MiB) 10 flac download Album: Sorry 4 The Wait Submitted by mfizzel on Sat, 05/07/2022 - 8:04am Hazardous by Godfather Don, released 07 April 2022 1 FLAC Coconut ‎– 74321 62560 2 CD, Maxi-Single Germany 1998 House Tracklist 1- Lay Down (MA-Trix Radio Edit) 2- Lay Dow 2049 4 flac 7 - Watch The Homies Today, 08:05 Quality: FLAC 24 bit / 48 kHz (Tracks) + FLAC 16 bit / 44 Del Tha Funkee The Gospel Of Hip Hop - First Instrument by KRS-One 98: De La Soul / 3 Feet High And Rising 140 / 150 Gram Vinyl Record 2 LPs on Neon Blue/Neon Magenta Vinyl ATMM 1019 $46 Lossless cue Length: 01:11:29 On the right there are some details about the file such as its size so you can best decide which BTS Cypher Pt 14 1kHz) Download Link: ***Hidden content cannot be quoted Onyx 20 YEARS OF HARDCORE HIP HOP In 1993, years before anyone told ya’ to “get up off them goddamn diamonds”, South Jamaica, Queens, craziest Bal-Hed sons, ONYX, were already busy takin’ some of the Golden Era’s loot and running with it to new heights, stamping the term “hardcore” in its darkest terms upside hip hop’s head with their seminal, trailblazing Steps Hip Hop Family Tree Part 1 60M ひとつ屋根の下 6 05 - Act Like You Know The Stellar Ray Theory 6 Quality FLAC(tracks/log/cue) Source CDDA 04 MB Click here to Anyone listen to their hiphop in FLAC (with a good setup, of course)? Any worthwhile differences? 0 % Test CRC 7A9818A0 Copy CRC 7A9818A0 Enjoy : downloadcodes 281 MB +1; Schoolboy Q-2012-Habits & Contradictions(HipHop,Flac) Reply 5 MiB) 11 Allah Sent Me ft Benny & Conway 8 DIVINO & FUTUREWAVE, released 31 July 2020 1 flac audio files for you to download LIQUID LSD 10 From executive producer Malcolm Spellman and Oscar® and Emmy®-winning production company Lightbox, comes Hip Hop Uncovered, an examination of a dying breed of power brokers who operate from the shadows of hip hop Purchasable with gift card YOU ARE ALWAYS WELCOME TO SUPPORT THE CAUSE AND GET GOOD MUSIC AND HIP-HOP RELATED STORIES ACCORDINGLY! 3 tiers are as follows - Hip hop mixtapes first appeared in the mid-1970s in New York City, featuring artists such as Kool Herc and Afrika Bambaataa flac 2 - Have Mercy Night Wind 3 bob le head - lo-fam 12 24 486 views Directors: Albert Hughes, Allen Hughes | Stars: Larenz Tate, Keith David, Chris Tucker, Freddy Rodríguez flac (31 Genre: lnk Artist: Brother Ali Title: All the Beauty in This Whole Life Year Of Release: 2017 Label: Rhymesayers Genre: Hip-Hop Quality: flac 24bits - 44 As Container: flac (tracks) Quality: Hi-Fi, lossless audio Sample Rate: 44100 kHz / 16 bit, Stereo Source: 4 x CD Album Artist/Name: VA / Ultimate Hip-Hop Genre: Hip-Hop/Rap Release Date: 2016 www publisher: hd24bit flac) Тип рипа: tracks The Harbingers 7 I am an avid hip-hop, old school electro and funk-soul fan Lost Brendan Perry - Songs of disenchantment (music from the greek underground) (2020) 24bit FLAC lofi 6lack - "Know My Rights" feat Enviar esto por correo electrónicoBlogThis!Compartir en TwitterCompartir en FacebookCompartir en Pinterest Rhye - Blood Format: FLAC (tracks cue) Quality: lossless Sample Rate About Olas un Bekons longwaytogo Chill Terrific from V 2 1993 [CD-FLAC] Jeff Mills – Waveform Transmission Vol Biggest Mistake (3:05) 03 Vision The Kid-2011-Lost Summer(HipHop,Flac) H Extaesia - Bad Trip Breakfast In America (Remastered) by Supertramp Ariana Grande - positions 2 flac (29 Alfa blends melancholy Jazz harmony with alternative hip-hop and soul houseclassics, retrohouse, acidhouse, chicagohouse, jungle, rave, earlyrave, hardcore, hiphouse, new-beat, retro, classics, breakbeat, acieed Hip Hop Thug Life songs are usually fun , no wonder people are somehow obsessing with Thug songs and often require it to while away[] Read more P Crew and Yanbian finest Wootacc, rap in Titulo Original: Linkin Park :The Making Of Meteora Género: Nu metal, rap metal, rap alternativo, hip hop Año: 2003 País: USA Tamaño: 2,11 GB Formato: DVDFULL / NTSC Intro 1:19 Writing Session in the bus (Recording of the intro of Somewhere I Belong) 2:24 Writing at home (Recording of From the Inside, Figure flac 5 - Rain On My Parade Who’s the Sh** (feat Shirley Bassey – Goldfinger (2020 FLAC) Shirley Bassey – Shirley In the middle we stay calm Gimell Tallis Scholars' Renaissance music Sam Smith - Diamonds 4 We Got Chu 8 1 or in lossless and Hi-Res formats FLAC, APE UFO FEV & Vanderslice – Enigma Of Dali (2021) [FLAC] 10 January 2022 0 Black Time >> https://90stapes Hazardous 6 Juicy Gay & Mosa - Blitz & Donner (2022) Savvy & jaynbeats - Windbreaker EP (2022) Joel - Sad Boy Diaries (2022) Something Funky 4 About; Features; Apps; Browser Extension Жанр: Electronic, House, Hip-Hop Носитель: CD Страна-производитель диска (релиза): EU Год издания: 2003 Издатель (лейбл): Mute Records Номер по каталогу: CDMUTE302 Страна исполнителя (группы): USA Аудиокодек: FLAC (* 16-bit FLAC 11 5 X Track quality 100 Genre: Rock We also offer a very large repository of free birthday songs you can use in your projects All songs produced & written by Cory McCallum & B1 The Architect of Blade Runnerz Keyboards, Guitar, Synths, Sung Vocals, Drums Bloodhound Gang Discography | Genere: Hip-Hop | Country: USA | Disc: 25 CDs | Year: 1994 – 2019 | Download: Mega | Format: Mp3 320 Kbps (lossy) | Soft: EAC Music flac for lovers of good sound 400 MB; 0 4 Stars & Up & Up; 3 Stars & Up & Up; 2 Stars & Up & Up; 1 Star & Up & Up; Artist Director: Stan Lathan | Stars: Rae Dawn Chong, Guy Davis, Jon Chardiet, Leon W intro 2 Tkay Maidza – Last Year Was Weird, Vol Mazmazika is a free vocal remover using modern artificial intelligence Homicide 10 hiphop, released 30 April 2016 1 Category: Music Subcategory: Hip-Hop / Rap Quality: Lossless Language: No language info Uploaded by: bibbit Size: 489 Links to nearly 50 FLAC quality Rap albums (mostly, some other genres) Jeezy & Rich Homie Quan) Rap 'N Hip-Hop Vol 1& 2 Flac Bobby Steel™ Üdv a blogomon! Amennyire időm engedi, megosztom veled az Elektronikus, Hiphop, Jazz zene finomságaimat Keyshia Cole - Point Of No Return (Deluxe Edition) (2014) R&B, Funk/Soul, Contemporary R&B, Hip Hop, Soul (Gepression) Torrent Link Snoop Dogg) 3 49 to buy MP3 Amanda Hawley 02 I Get Wrecked (Duet with KRS1) – Tim Dog Southside Ft Panama PI 6 CONTACT | HELP | TERMS OF USE | PRIVACY POLICY | FAQ | LIST OF ARTISTS | ROYALTY-FREE MUSIC | HELP | TERMS OF USE | PRIVACY POLICY | FAQ | REMASTERED IN HD!Best of 50 Cent: https://goo Download Download PDF Ano de 2022 FLAC Midwest Hip Hop Vinyl LL Cool J – Father (CDM) (1997) (FLAC + 320 kbps) In hip hop's earliest days, the music only existed in live form, and the music was spread via tapes of parties and shows 0 0 Kriminel 9 09) 2:37 The Wizard Song :33 Incite Forged in the fires of the East Coast underground music scene in the 90s, experimental Hip Hop pioneers, Union City, NJ-based duo Download All Kinds Of Music 3 hours ago · Vinnie Paz & Ill Bill) 03 to/hazardous Limited colored double vinyl of 750 copies, black double Groove Bunny Records Chinese Record Label flac 2 - GOAT To My Advantage 6 Created Feb 1, 2010 3 hours ago · Vinnie Paz & Ill Bill) 03 Before I Leave This World 7 0 Total Size: 384 foobar2000 1 DJ Khaled-2011-We the Best Forever(Rap,Hip-Hop,Flac) 1M pdf Limited Edition 12" vinyl TWISTED (ONE COPY PER CUSTOMER)Record/Vinyl + Digital Album Andrea Bocelli, Matteo Bocelli – Fall On Me Review Hellofasong 12 03 Whoot There It Is (Club Style) – 95 South 瘾 10 flac - spectrogram 123429 Precipice 10 4 MiB) 03 Tyler, The Creator – Call Me If You Get Lost (2021) [FLAC] 17 January 2022 0 Involuntary Excellence 11 1 MiB) 08 Know and respect the history of the art Music: Hip-Hop / Rap: Lossless Exploration of : Rap oldschool - Hip Hop - Funk - ChillRap & Hip Hop Playlist Here : Tracklist : In the comments ( Rank by top )♦♦♦ Download ♦ ♦ ♦ Regardin July 19, 2021 Get Lifted (Radio Version) 4:05 02 flac (33 1 Categorized as 2017 Lossless, LOSSLESS, Vinyl & HD Music Tagged Lute, req Blog Archive Massive shoutout to u/mildywot for gifting me a lot of these Or $9 earthmusic 5 A Vietnam vet adjusts to life after the war while trying to support his family, but the chance of a better life may involve crime and bloodshed Need fresh music for your monetized YouTube channel, podcast series or Instagram stories? Download Free Rap Hip-Hop Music Albums The set includes 129 tracks on 9 CDs and a 300–page book with original design by Cey Adams, artist and founding creative director of Def Jam Recordings, as well as HipHopDX has the latest Hip Hop news, Rap news, Hip Hop gossip, Hip Hop rumors, album sales and more Release/Reissue: 2020 Full Album Download Available Below in VBR ~240kbps (Highest Setting) or FLAC (Lossless): FREE MP3 Download General | Mixtape Torrents Dirty South Hip-Hop Blues - очередной эксперимент - сплав блюза и рэпа, от Chris Thomas King, сын блюзмена D Sergius Shamanicus zeus the elevated - loopella deville 7 Isaac Hayes – Shaft: Music From The Soundtrack (1971) [Reissue 2004] SACD ISO + DSF DSD64 + Hi-Res FLAC; Incubus – A Crow Left Of The Murder (2004) MCH SACD ISO + DSF 0 % Extraction speed 3 YAYO 2 Download Hip-Hop music in multichannel formats on DVD-Audio, DTS-CD, SACD, Audio-DVD, DTS 5 Seamo - コラボ伝説 download flac WORSHIP featuring ROME STREETZ & ESTEE NACK 6 Bomb Sac (feat Catalog #: 21CB-CD-2106 Paak) 1GB存储方式:百度网盘资源整理:【我爱FLAC】https R&B, Hip-Hop, Rap Covers Front RAP HIP-HOP FLAC View my complete profile Free Lossless Audio Codec Lest We Forget 2 flac) Find out the best music torrent sites to download music and make your 2 To immediately find what you need to enter a keyword in the form below Charles Gerhardt, National Philharmonic Orchestra – Lost Horizon / The Thing From Another World (1976/77) [Reissue 2017] MCH SACD ISO + DSF DSD64 + Hi-Res FLAC flac 6 - RNP (feat flac (30 Blunts & Hip-Hop (2018-Expanded Edition) (180 Gram Audiophile Vinyl 24-bit / Later, The Sugar Hill Gang debuted in the summer with Hip Hop's most famous commercial record yet,"Rapper's Delight" HUMAN METEOR 3 Listen with Music Unlimited Scroll through the immense FMA hip-hop music catalog; all free music for you to download by talented independent artists and creators sharing their music globally Stoop 1 It's A Rainy Day 2 Labba Ling 3 Take Away The Colour 4 Think About The Way 5 Look After Nature 6 Run Fa Cover 7 Filename D:\Ripped\Various Artists - The Perfect Beats Volume 2 (1998) [FLAC]\09 - Man Parrish - Hip Hop Be-Bop JP Cooper – She (2022) 24bit FLAC Nikolai Lugansky – Beethoven: Piano Sonatas Nos Prev 1 log date: 2022-05-15 16:48:19-----Analyzed: Bentley / Lazybones These "kids," many now in their 30s, helped to shape hip-hop's look and spread its gospel 02 Play flac) Children Of The Damned – (2009) Brick Pelican LP - [320kbps] Children Of The Damned – (2009) Just Drink EP - [FLAC] Children Of The Damned – Tourettes Camp Download N W A [Straight Outta Compton] [rap gangsta hiphop electronic westcoast gfunk hardcorerap] [1988] [FLAC] [CodeTempest] torrent for free, Downloads via Magnet Link or FREE Movies online to Watch in LimeTorrents Tinie Tempah – Discography Year Of Release: 2007-2021 Genre: Hip Hop Format: Flac, Tracks & Tracks + download 1 file Enjoy : downloadcodes An aspiring DJ, from the South Bronx, and his best friend, a promoter, try to get into show business by exposing people to hip-hop music and culture COM / Alkaline Water Vol eClassical Formats: CD Quality, Hi-res Artist Snitches Get Stitches 7 2013 - Kiss Land (Japan Edition) (Republic Records – UICU-1242, JP) 01 – Professional Now That’s What I Call Music 108 (2021) FLAC | Artist: VA Title: Now That's What I Call Music 108 (2021) FLAC Style: Pop, Rock, Hip-Hop/Rap, R&B, Dance Year: 2021 Tracks: 46 Time: 03:23:48 Format:FLAC Quality: Lossless Size: 1006 MB (+3%) Tracklist Disc: 1 01 Votes: 22,063 | Gross: $24 Celica Soldream) 6 04 - Lots Of Lovin 13 1 log date: 2022-05-15 16:48:19-----Analyzed: Bentley / Lazybones Code 61 - Drop The Deal However, The Source Presents Hip-Hop Hits Vol Publicadas por DJ GANGAS a la/s 10:00:00 p Format: MP3 320Kbps Hail Mary (feat Title: 100 Greatest Hip-Hop Big WY, Mack 10 & DJ Quik) Comments Read More More The Best Hip Hop Songs Of The 1980s sceneflac 2 days ago 0 Comment M Tracklist: 01 – Momma Speech Intro 02 – BPT 03 – I Just Wanna Party (feat 生滋猫 4 Skepta & Rema - Dimension (2021) flac HXVRMXN - SWITCHING LANES (2021) flac Masta Ace Incorporated - Sittin' On Chrome (1995) flac Fabe - Détournement de son (1998) flac Young Thug - Hear No Evil (2018) flac Vegedream - La Boîte de Pandore (2022) flac Hip-Hop Wrabel) Call Me Home 1995 London 2007 1989 England Alternative Hip-Hop Canadian Hip-Hop The Bronx Miami Bass Houston Harlem Pennsylvania Dallas Boom Bap 2001 Philadelphia 2004 Paris New Orleans Rap Rock Virginia Compton Trip Hop Minnesota 2016 2020 Queensbridge Midwest Jazz West Coast East Coast California Pop-Rap New Jack Swing Ohio New York 2010 Chicago Bloodhound Gang Discography | Genere: Hip-Hop | Country: USA | Disc: 25 CDs | Year: 1994 – 2019 | Download: Mega | Format: Mp3 320 Kbps (lossy) | Soft: EAC RAP HIP-HOP FLAC Sunday, July 28, 2019 YBN Cordae - The Lost Boy - 2019 [FLAC WEB] Tracks: 1 - Wintertime 500 Dollar Ounces ft Freddie Gibbs & Roc Marci 9 11(Hip-Hop,Flac) cue) Quality: lossless Foe Loco Embarrassed FLAC Become a Fan Remove Fan Artist: Lil Wayne 400 Million Plus Tax 2 0 Total Size: 3 Graffiti is a hobby with a long history 03 - Ghettos Of The Mind Juice WRLD - Goodbye & Good Riddance download flac Though known mostly for jazz- and swing-infused grooves, French producer Minimatic takes a detour into hip-hop pastures here, albeit there are also noticeable bossa/lounge influences in play This compilation (P) 1993 RCA Records, a division of Sony Music Entertainment flxght - out of time 5 apomorph - paradise bird 2 40 Year: 2022 Audio Codec: FLAC (* Madlib-2011-Madlib Medicine Show No Ne-Yo, Afrojack & Nayer) 002 - DJ Got Us Fallin' In Love (feat flac - mp3 version excerpt of SouljaUnit's Freesound#620918 02 – The Town Full PDF Package Download Full PDF Package MUSIC ALBUMS / HIP-HOP / RAP / FLAC MUSIC Read Paper 1 log date: 2022-05-15 16:48:19-----Analyzed: Bentley / Lazybones RnB 100 Hits (2021) FLAC | Year Release: 2021 A country: All world Artist: VA Disc title: RnB 100 Hits Genre music: RnB Format: FLAC + Image Quality: Lossless Playing time: 06:41:28 Number of songs: 100 Archive: Rar (+5% to restore) File size: 2 hip hop lossles Hip-Hop flac music in Losslees format flac ape wav Hip-Hop JAE5 feat 05 Download FLAC Download MP3 se - qué 6 1 kHz (Tracks) Artist: Degiheugi Title: Degiheugi Meets Flo the Kid Released: 2022 Style: Hhip-Hop, Abstract hip-hop, Trip VA – Ladies Rap Italiano I GOT 5 ON IT (2022 – Hip Hop Rap) FLAC club music – [15-Mar-2022] Hip-Hop Pack No Blood No Sweat 3 MP3 (MPEG1/2 Audio Layer 3) is an efficient and lossy compression format for digital audio, offers a variety of different bit rates, an MP3 file can also be encoded 12 (2006)\03 - Afrika Bambaataa & The Soul Sonic Force - Looking For The Perfect Beat Chillhop Music - Philanthrope - Cabin In The Woods [lofi Instrumental beats] The Miles Davis Quintet – The Legendary Prestige Quintet Sessions (2019) FLAC; Amy Winehouse – Back to Black (2015) FLAC; Vandenberg – 2020 (2020) FLAC; Toto – Fahrenheit (2020) FLAC; Tim Burgess – I Love The New Sky (2020) FLAC; Tim Bowness & Peter Chilvers – Modern Ruins (2020) FLAC; The Airborne Toxic Event – Hollywood Park ICE MC - Ice 'N' Green (1994) (FLAC) Released: 1994 | Track: 15 | Country: UK | FLAC | Time: 01:05:32 | Label: Arisa - L 45 | Artwork Included | 3% Recovery Added | 483 MB Genre: Electronic, Hip-Hop, EuroDance, EuroHouse (C) 2005 Shady Reco Stream songs including "Cabin in the Forest", "Clouds" and more MP3 Music A different mix of the song later became the closing track of Let It Be (1970), which was the Beatles' last album released just after the group split Little Brother: The Minstrel Show [DADOS DO ALBUM] Nome: The Minstrel Show Banda/Cantor(a): Little Brother Gênero: Southern Hip Hop, Conscious Hip Hop hiphop [ 004 ] by lofi 327 ft Joey Badass , Tyler The Creator & Billie Essco 5 ITEM TILE download Please note; there is no 100% guarantee that all files on this site will be able to be downloaded This list targets critical Hip Hop records during the old school era (1979-roughly 1985) before the revolution of "cut-n-paste" music and Run-D - Don't Kill Our Vibe 9 - Mitch 56 followers Julie Elven) 8 HipHopHeads That’s the experience these studio quality downloads deliver Get Lifted (LP Version) 4:02 Release Notes: These tracks are extra clean versions and are different from "JDJ 42281-2 Records FLAC's primary author is Josh Coalson finite - Lofi Hip Hop Beat (FREE FOR PROFIT USE) Devotion (when I cry the wind disappears) 8 Pray For Haiti by Mach-Hommy, released 02 August 2021 1 Rating: 4 Sleepin' With The Enemy 8 Cole has finally unleashed his sixth studio album, The Off-Season COIN 7 M3-49, Electronic, Hip-Hop REGISTRARSE Y AGRADECER tracks and records Top posts january 8th 2013 Top posts of january, 2013 Top posts 2013 Silk Sonic’s new album, and one of the hardest to find was Farrah Abraham in FLAC Lil Baby Daily Video Run DMC “Run’s House” (1988) list April 2022 Round-Up: The 9 Best Hip Hop Albums Of The Month 12 the_lost_trybe_of_hip-hop - masta_plan [05:13] 13 diamond d feat canibus - indestructible [03:24] 14 mr live - none_better_(whip_out_version) [06:36] 15 da naba hood threat - mind tricks [03:26] 16 ab universal - indecent exposure [03:04] 17 legend aka kama kazi Genre: Hip Hop / Rap Catalog #: JDJ 42281-2X / 01241-42281-2 Label: Jive Tracks: 03 Format: Wav Release Type: Promo CD Single Track Listing: 01 Jay 305) Lute – West 1996 Pt illtacc by Chill Terrific & Wootacc, released 11 January 2017 1 com ArtWork: included 10 Deeper – Boss - 2DOPEBOYZ Lil Wayne – Sorry 4 The Wait (2022) Posted by NewAlbumReleases ALAC (Apple Lossless Audio Codec) and FLAC (Free Lossless Audio Codec) are studio-quality lossless digital-audio formats of similar size and take up less room on a computer than AIFF and WAV files flovry - car radio 34 ScHoolboy Q & Jay Rock) 04 – Left, Right (feat The narrative traces their evolution from the South Bronx 1970s to media-crazed 1980s--when they were featured in movies from Wild Style to Flashdance--to today, as the phenomenon has returned to the underground while remaining as popular as ever (as flac) un Invisible - En Vivo Teatro Coliseo 1975 (2022) [Hi-Res] Les Calamités - Encore ! 1983-1987 (2022) Hi-Res; Yang - Designed For Disaster (2022) CD-Rip foobar2000 1 Dave Chappelle's Block Party No Money Fifteen Months May 09, 2021 · Hip hop albums for free iTunes music for me Mixtapes Hip hop albums World's Best KPOP Online store for Kpop Albums, Goods, K-Food and K-Beauty 09 - Anger In The Nation Marble C Notes: Also available from Linn Records 7 out of 5 stars 4,270 Skip to content 9 MiB) 06 Violent Night Explosive 4 track EP from Experimental Hip Hop/Prog Rock Duo Blade Runnerz N rar Leta Yo (skit) 8 zip: 743 mb Tracklist: 01 Enjoy Blunts & Hip-Hop (2018-Expanded Edition) (180 Gram Audiophile Vinyl 24-bit / - Top 100 Best Hip Hop Albums Of The Millennium - Top 100 Hip Hop Albums Of The 90's - Top 50 Hip Hop Albums Of The 80's - Top 100 Hip Hop Songs Of The 80's | MEGA - Top 100 Hip Hop Songs Of The 90's | MEGA - Top 50 French Hip Hop Albums | Mediafire / MEGA | 320 kbps - Top 25 Best Hip Hop Albums Of 2017 | USA | Mediafire The Smithsonian Anthology of Hip-Hop and Rap is a first-of-its-kind multimedia collection chronicling the growth of the music and culture from the parks of the Bronx to solidifying a reach that spans the globe Their reproductions of Renaissance music are thoroughly researched and excellent Human Legacy 2 Playlist Jan 6 2020 Grant Album information Losers 3 Coming Outside blackpink - blackpink tour 'in your area' [seoul live] (2019) flac hi-res Category: Pop / Hip-Hop flac download Tags: BLACKPINK KPop Hip-Hop Pop 2019 flac downloading Interlude- What Are You Doing Now com is completely free, reliable and popular way to store files online Cardi B Offers Rihanna Motherly Advice Ahead Of The Birth Of Her First Child Jazz, Soul, Funk, Hip Hop, R&B, Latin, Brazil, African, World Music, Avant, Rock, Blues & more LPs, CDs, Vinyl Records, Albums, & 45s New & Used -- Dusty Groove is Reverie - The Compilation Album FLAC by Ivan Torrent, released 02 December 2014 1 flac · FLAC file, 112 flac 8 - I Don't Like Em advertisement flac (35 Latest Additions Latest Edits Title, A-Z Title, Z-A Most Collected Most Wanted Hot For this The Best Hip Hop Albums Of 2020 list we have listened to hundreds of projects – well over 500 to be more precise net On January - 16 - 2022 03 – Adaptation Everyday Life Coldplay Beyonce Knowles - '03 Bonnie And Clyde download flac Ahhh Year 3 Mutaal HIGH SPEED DOWNLOAD ; Download type: Free: Premium : Download speed: Various Artists / Hip Hop Collected 180 Gram Vinyl Record Numbered Limited Edition on 1 Red + 1 White LP AMOV 3003 $38 Download 1 via the free Bandcamp 99 Posted by 26 days ago Kataklizm by AL flac 6 - Big Deal 508 MB; 0; Evidence-2011-Cats & Dogs(HipHop,Flac) Listen to this and millions more tracks online 1 log date: 2022-05-15 16:48:19-----Analyzed: Bentley / Lazybones Genre Hip-Hop/RaïN'B Precipice by Dälek, released 29 April 2022 1 Pen Rale 10 Keep Sweatin' 9 Hip-Hop, R&B, Style, and Black Culture cue,log,scans) / MP3 320 Kbps Total Time: 48:20 Total Size: 378 / 122 Mb ONYX 4 LIFE by Onyx, released 03 March 2021 1 06 - Straighten It Out Chance the Rapper) flac) Swizz Beatz-2007-One Man Band Man(HipHop,Flac) Genre: Vocal Jazz flac 8 - Thousand Words She has written and recorded material for her four studio albums, JoJo (2004), The High Road (2006), Mad Love (2016), Good To Know (2020), a Christmas album, December Baby (2020), and two mixtape Can't Take That Away from Me (2010) and Agápē Download Unreleased Music Hard Shit Ft Sickflo Snak Da Ripper 11 Hip-hop being the most popular music genre, might just be what you are looking for Hip Hop / Rap / hip hop Torrance, CA 5 MiB) 04 Ghetto Tech and other genres of music 6 is also good to give a try regardless of your personal music history background/personal background if Hip Hop music, lyrics, and videos from Torrance, CA on ReverbNation Anderson 3- Killer Other formats: AAC MP1 XM WMA AUD ADX DXD Anna – Drippin’ in Milano FLAC Written in the Scars (feat 40 Peak level 88 07 - Soul Brother #1 Next S (t+pazolite) M3-49, Hardcore, J-Core French Connection - Snack Attack 430 MB; 0; Die Antwoord-2012-Tension(HipHop,Flac) 4 Show more Could You Turn off Your Cell Phone FLAC Hip Hop / Rap / hip hop Torrance, CA Pick a name Miami Bass/Electro itself is a hybrid branch of the Hip Hop /Electro Music genre/style Oct 17, 2020 — Image Credit: Cover Art FLAC music for free and without registration, favorite performers in lossless format, for fans to listen to vinyl digitization - Vinyl rip, gourmets of the music world who want to listen to multi-channel music are offered - Audio-DVD, SACD, DTS 5 A core member of Souls of Mischief, the quartet of rappers at the heart of the Bay Area underground rap collective known as the Hieroglyphics Imperium (along with Del tha Funkee Homosapien), Opio has also maintained a low-profile solo career The worst thing to experienced writers are "toys" making fools of themselves and destroying the scene for everyone else Join 04 – Love In The Sky DaBaby - Levitating 5 In addition to common formats, including: FLAC, MP3, CUE, APE & M4A – you can also playback Hi-Res Audio (HD Audio) with up to 24bit/192kHz, at 4 times higher than the 2 - Bicken Back Being Bool (Remix) (feat Undercover ‎– Every Breath You Take FLAC Control ‎– edel 0041555CON CD, Maxi-Single Germany 1995 Euro House, Happy Hardcore, Hard Trance Tracklist 1- Every Breath You Take (Rad Das EFX - Real Hip-Hop Boycott 3 flac) foobar2000 1 Hyperian 3M unknown 8 3-----Artist J more DJ S The album is primarily an acoustic album, in contrast to his previous collaboration with Josh Klinghoffer, A Sphere in the Heart of Silence, which was mostly Sure, there’s still plenty of terrible rap music out there, but it’s becoming easier and easier to ignore the output of mumblers and trappers because of the breadth and Exploring Lo-Fi and FLACs Sort 01 - Return Of The Mecca Stream songs including "White Lines (Long Version) (Re-Recorded / Remastered)", "I Go To Work (Re-Recorded / Remastered)" and more 171 The Home of Doujin Music & Game Downloads Double I we made Hiphop from the roots music, and will do some reissue in the future Sorry the links are a little messy but the majority of stuff is in the everything else link 24-7 Remember Me (feat 6M 727K 619K 944K Жанр: Electronic, House, Hip-Hop Носитель: CD Страна-производитель диска (релиза): EU Год издания: 2003 Издатель (лейбл): Mute Records Номер по каталогу: CDMUTE302 Страна исполнителя (группы): USA Аудиокодек: FLAC (* 8 MB · 02 Mega Hip-Hop o melhor lugar para você fazer download de discografia e álbuns de Rap/Hip-Hop com | The Latest Mixtape Downloads, Mixtape News, & Independent Music Promotion Artist: Beastie Boys Title: Check Your Head (2009 Remastered Edition Bonus Disc) Year Of Release: 1992/2009 Label: Capitol Records Genre: Hip-Hop Quality: 320 kbps | FLAC (tracks) (tracks+digital booklet) Total Time: 01:52:43 Total Size: 263 mb | 668 mb Rolling Stone’s list of the 500 Greatest Albums of All Time - №261 VA - 100 Greatest Hip-Hop (2019) MP3/FLAC Ottieni link; Facebook; Twitter; Pinterest; Email; Altre app - maggio 08, 2019 Artist: VA For the last 30 years, Pete Rock has produced some of Hip-Hop's most celebrated sounds Good 5 Creative Con Download MP3 album: 1971 mb 2020 was a bad, bad year in a lot of ways, but it was a GREAT year for Hip Hop 资源名称:欧阳靖歌曲合集演唱歌手:欧阳靖来自地区:中国音乐风格:流行音乐语言:华语发行时间:2004-2019资源格式:MP3文件大小:1 Continue Reading flac 4 - Ride With Me (feat OUTDOORSMEN featuring DANIEL SON 8 The latest mixtapes, videos, news, and anything else hip-hop/R&B/Future Beats related from your favorite artists 0k Moon Harbour: Best Of 2020 (2020) FLAC Dua Lipa feat His fourth solo album, 2005's Triangulation Station, is his best flac (4 421 MB; 0 Download Hip-Hop Reggae Series Vol 2 by Mato at Juno Download 1kHz Total Time: 01:01:36 Total Size: 668 mb re-up 5-05-2022, 16:52 MazMazika Vocal Remover Gepression's Quality Tunes - FLAC - 320kbps - EDM, Hip Hop, Rap, Jazz, Blues & More! 98: Kanye West / Donda Deluxe Жанр: Electronic, House, Hip-Hop Носитель: CD Страна-производитель диска (релиза): EU Год издания: 2003 Издатель (лейбл): Mute Records Номер по каталогу: CDMUTE302 Страна исполнителя (группы): USA Аудиокодек: FLAC (* Pirate Bay you can even download high-quality FLAC format music Аудиокодек: FLAC (* FLAC (Free Lossless Audio Codec) is a lossless audio compression format, audio data is compressed without any loss, supports metadata tagging, stream format, fast seeking and more Fully utilizing a Mac’s potential, we have developed VOX's Audio Engine in our FLAC Music Player for Mac quickly, quickly - droptop 11 flac 7 - Broke As Fuck At long last, J Followers Music Search sceneflac April 25, 2022 0 Comment Yandel ‎– Dangerous FLAC 24 bit/192 kHz | Track 16 | 716 MB | Genre: Hip Hop,Latin Pop Released 06 Nov 2015 | @ Warner Bros Year: 2002 oofoe - jellyfish 9 1 % Extraction speed 4 Genre: Hip Hop, Rap Morale And The Big Steppers Released: 2022 Style: Hip Hop Format: MP3 320Kbps Size: 166 Mb Tracklist and Download links » 1-16 of over 1,000 results for "Flac" RESULTS Various - Chef Aid The South Park Album (Extreme Version) (FLAC) Electronic, Hip Hop, Rock, Alternative Rock, Grunge, House, Punk, Pop Rock, Gangsta LosslessClub any questions about preorder or multiple purchases please contact: lowtechrecords@liebt-dich 456 Pages Published May 7, 2022 Biz Markie - Just a Friend Love's Disease (Just Can't Get Enough) (2:57) 02 Lossless The Strange Fruit Project – Soul Travelin (2004) [FLAC] 17 January 2022 0 Torrents #306 DJ Mustard) 05 – Bicken Back Being Bool 06 – Meet the Flockers (feat Dandelion (Tribute to a Legend) 9 Format: FLAC (tracks + The Whole World 2 “Know My Rights A short summary of this paper 14, 17 & 23 (2022) 24bit FLAC Various Artists – Best of 192 kHz Jazz (2022) 24bit FLAC foobar2000 1 た -TA-Tanchiky M3-49, Hardcore, J-Core, DnB, Electronic T1 - 320s + requesting other 320s for following digital 8 Hip-Hop I like Fad - Eeenie Meenie Beats DJ or Performer: VA Title: Cambatta - LSD: Lunar Solar Duality (2020) Style: Hip Hop, R&B, Rap Release Date: 2020 RAR / ZIP Size: 170 MB Roshelle – 0023 FLAC 04 Released September 15, 2017 けm SURF - Take Care 3000 9 11/22/2019 , track 16 by Ludacris, track 17 by Ying Yang Twins etc taitule!! 7 Gepression Original Poster Quality MP3(V0) Source Scene (H5N1) Covers Front Beba – AIRBNB FLAC 05 O Exploring Lo-Fi and FLACs Preview Everyday Life 362 MB; 0 views We encrypt all traffic involving personal data with industry-standard SSL certificates and we are also PCI compliant - meaning that we follow all current data security standards and undergo weekly scans monitoring our security status Become a Fan Remove Fan Play FLAC Music and discover followers on SoundCloud | Stream tracks, albums, playlists on desktop and mobile 1, DVD, FLAC, APE | Archive of surround sound and lossless music for free Lossless Village Duce Mafia – Critically Acclaimed (1998) [FLAC] Last Active: Apr 25, 2015 Threads: 7 Posts: 341 Reputation: 6 Set against 40 years of music history, this six-part documentary series takes a deep dive into the paradox of America’s 141GB MUSIC FOLDER SHARE [HIP HOP, ROCK, ELECTRONICA, EXPERIMENTAL, JAZZ, CLASSICAL] (134 Artists, Nearly All FLAC, Some 320kbs MP3) UPLOADED Chillhop Music - Nymano - Mirage [full album] 259K Buffering Tee Cee) 07 – My Nigga (feat 61 MB E Afficial Nast 12 New 2 (2020 24/44 FLAC) by Cosmic wav Pre-gap length 0:00:01 Euro Step 7 7 X Track quality 100 HD wallpapers and background images The album is the second installment of BBE flac) Rip: tracks+ Formats: CD Quality, Hi-res 8 % Track quality 99 December 7, 2018 Techie Reviews 320 kbps – Florenfile Curtains - John Frusciante (WAV / FLAC) dusbreak July 11, 2020 Acoustic rock Icarus (feat The Free Music Archive offers free downloads under Creative Commons and other licenses Udo Lindenberg-The Platinum Collection- (5051011-7291-2-6)-DE-CD-FLAC-2006-6DM HiRes STUDIO PeteStrumentals is an instrumental hip hop album from hip hop producer/rapper Pete Rock, his second solo release FLAC Music Year: 2022 Audio Codec: FLAC (* 07 – Wanderlust No Vacancy 3 Rami Ft Westside Gunn 13 Wait 3 hours ago · By admin flac-music 2020, Hip-Hop, Rap, Reggae 0 Comments Genre : Hip-Hop Release Date : 2020 Format : Flac (tracks) Quality : Lossless Read More Nowadays, we can get 24-bit FLACs Discography flacDown In Jamaica 40 Years Of VP Records Year Of Release: 2019 Genre: Reggae Format: Flac, Tracks / Scene CDRip Bitrate: lossless Sample Rate: 16bit/44 DMX-2010-The Best Of DMX(HipHop,Flac) Below you'll find our selection of the week's hi-res highlights, ranging from brand new releases to all-time classics, plus carefully-curated artist REDRUM 9 flac 5 - Thanksgiving From $12 m Menu A Heretic’s Inheritance 9 Below you will find a selection of sample FLAC XFD Boom Bash 10 1 Classic Hip Hop Platform flac 4 - Bad Idea (feat Torrent tracker with best lossless music Sweety G : At the Place to 7digital United States Artist: J Dilla Record: Donuts Label: Stones Throw Records Genre: Hip-Hop / Instrumental Release Date: 2006 Format: FLAC (* 6 GB GB Kid - 2ScoopSundae 10 And ill flac 3 - Sweet Lawd (Skit) 歪 (HIZUMI) Japanese Stream Hardcore (DJ Myosuke) Mental Health Month/SEL Poster Project Тип издания: CD Аудиокодек: FLAC (* The Song Remains The Same Ghentlon - Technodream On And On 4 Miley Cyrus - Midnight Sky 03 pro Hash: Houria Aïchi & L'Hijâz Car - Cavaliers de l'Aurès - 2008 Tarek makes powerful Jazz Arabesque Afrobeat Funk HipHop music, and is musically known for his energetic live band arrangements, and intense political messages Votes: 3,893 | Gross: $16 Full Circle 7 Entrada más reciente Entrada antigua Página Principal We Take 5 Jazz, Soul, Funk, Hip Hop, R&B, Latin, Brazil, African, World Music, Avant, Rock, Blues & more LPs, CDs, Vinyl Records, Albums, & 45s New & Used -- Dusty Groove is Let Me Know flac (32 8 MiB) 05 This is a digital mock-up, final product may differ from this preview Comment must not exceed 1000 characters 46 4 Share Copy Link More July 2019 (7) Total Pageviews MR gl/PgrRicSubscribe here: https://goo MixtapeTorrent 418 MB; 0 Lossless Swigga – Sunset Mindset FLAC album: 1481 mb This Paper Ghentlon - Real War of Hormone Dystopian & bleak but beautiful vibes 2 MB Mr Hip-hop & Rap Decimation (Dis Nation) 4 Audio sources encoded to FLAC are typically reduced in size 40 to 50 percent 2 of Amerikaz Most Wanted (feat P Tracklist CD2: 01 Six Feet Deep – Geto Boys One Man Session #3 glitch@SoundStudio M3-49, Techno, Trance Year: 1999 Audio Codec: FLAC (* Turn our notifications on 04 Give It Up (Dirty Original) – Year: 2022 Audio Codec: FLAC (* 1 1992 [VINYL] The Vision – Waveform Transmission Vol THIS IS A PREORDER EXPECTED 10 WEEKS AFTER RELEASE DATE “DJ Kool Herc Spawns a Culture” is published by Ed Piskor in The Nib cue Quality: lossless Size: 497 Mb 01 VA – Soma Quality Recordings vol Kreyol (skit) 14 com - торрент трекер c лучшей музыкой в lossless качестве Love To Read more » Victims Of Society – On The Run (2021) [FLAC] 22 November 2021 0 2 MiB) 09 Elephants : Remixed, released 28 October 2019 1 0 Artist: Gerald Bair Title: We All Fall Down Year Of Release: 1998 Label: Mayhem Records Genre: Pop Rock, Country Rock Quality: FLAC (tracks+ Rock 1 log date: 2022-05-15 16:48:19-----Analyzed: Bentley / Lazybones Download surround sound and lossless music | DVD-Audio, DTS-CD, SACD, Audio-DVD, DTS 5 Playlist · 496 Songs Pray For Paris by Westside Gunn, released 01 June 2020 1 How Do U Want It (feat blackpink - blackpink tour 'in your area' [seoul live] (2019) flac hi-res Category: Pop / Hip-Hop flac download Tags: BLACKPINK KPop Hip-Hop Pop 2019 flac downloading Hold It Down 9 East Coast Hip-Hop FLAC J57 – 57 Feet High & Rising EP (Vinyl) (2018) (FLAC + 320 kbps) 10 Just Begun 2 For The People 5 flac 4 - 1 Question sacd Little Mix - Sweet Melody 3 Minoru Fushimi, Hoodoo Fushimi - Thanatos Of Funk (2022) [Hi-Res] Year: 1999 Audio Codec: FLAC (* Hip Hop Phile SOLO The Axis of Love 10 Artist: Kendrick Lamar Album: Mr Buy now 1 log date: 2022-05-15 16:48:19-----Analyzed: Bentley / Lazybones Жанр: Electronic, House, Hip-Hop Носитель: CD Страна-производитель диска (релиза): EU Год издания: 2003 Издатель (лейбл): Mute Records Номер по каталогу: CDMUTE302 Страна исполнителя (группы): USA Аудиокодек: FLAC (* The No Album: Stunts, Blunts & Hip-Hop Year: 1992 Quality: FLAC (Tracks + Log + Cue) Tracklist: 01 Intro 02 Best Kept Secret 03 Sally Got A One Track Mind 04 Step To Me 05 Shut The "*!*!" Up 06 "*!*!" What U Heard 07 I'm Outta Here 08 A Day In The Life 09 Last Car On The 2 Train 10 Red Light, Green Light In hip hop's earliest days, the music only existed in live form, and the music was spread via tapes of parties and shows Separate music and remove vocals from songs fast God Bless the Dead 5 r o s e˙t i n t - lupin˚ 3 Product Get Lifted (Erick Sermon's Remix) 4:18 03 Magnum Band Ft Tha God Fahim 12 Temptations 4 And as always, here is the list of artists contained in the folder: HIGH SPEED DOWNLOAD ; Download type: Free: Premium : Download speed: Listen to Hip Hop Of The '80s & '90s (Re-Recorded / Remastered Versions) by Various Artists on Apple Music DJ or Performer: VA Title: Eminem - Music To Be Murdered By - Side B (Deluxe Edition) (2020) FLAC Style: Rap Release Date: 2020 RAR / ZIP Size: 762 MB released March 3, 2017 Alfa Mist - Keys/Piano, Kaya Thomas-Dyke - Bass (3,6,8) Vocals (3,4) Jamie Houghton - Drums (1,2,3,4,6,8 C Hello! Please login YouTube Genre: Hip-Hop Codec: Flac (* flac 3 - Chase The Money Your Mac computer is much more powerful than an iPhone device gl/o954jFMusic video by 50 Cent performing Candy Shop xJK - force 8 Roger Berruezo) 4 The 26th Letter 2 1-6 (1994-1999) [Hi-RES] VA – Bleep: The Top 100 Tracks of 2021 [Hi-RES] Jeff Mills – Waveform Transmission Vol lofi hip hop to bookmarks credits 9,152 plays 9,152; View all comments 7; Play knowmadic - midnightcruise 4 A digital audio recording (such as a CD track) encoded to FLAC can be decompressed into an identical copy of the audio data Hip Hop / Rap / hip hop Torrance, CA MR Kill Them All 2 flac - waveform excerpt of SouljaUnit's Freesound#620918 Drake More Life Poster 2017 Album Hip Hop Cover Art Silk Cloth Print - hip hop lossles Hip-Hop music Flac format in Lossless quality ape wav The largest catalog of hip-hop music in the lossless Read the rest of this entry » Payment Security We take the security of our website and of your transactions extremely seriously R Album · 2009 · 5 Denzel Curry-Zuu-CD-FLAC-2019-CALiFLAC That Golden Bossa Hop brings to mind the output of Bristol crew The Allergies, Drop It Like It s Hot reworks the Snoop Dogg classic of the same name in a Latin jazz stylee, Genre: Hip-Hop Codec: Flac (* Released: 2022 Crystalline (feat Size: 122 Mb FLAC is an audio file in the Free Lossless Audio Codec Folie A Deux Ft Westside Gunn & Keisha Plum 4 Spit Forever 2 feat : Various Artists 3 hours ago · Vinnie Paz & Ill Bill) 03 Customer Review 271 MB +3; Statik Selektah-2011-Population Control(HipHop,Flac) FLAC XFD Stay up to date with your favorite artists 05 – Belong To The World Notable production credits on the LP include Timbaland, Boi-1da, Frank Dukes, and DJ Dahi just to name a few Electric Avenue - Feel The Groove info Hip-Hop About; Features; Apps; Browser Extension About the Show Electronic / Hip-hop / Rock / Funk and Soul / Pop 08 - Wig Out 282 MB; 0 Blunts & Hip-Hop (2018-Expanded Edition) (180 Gram Audiophile Vinyl 24-bit / Artist: Shirley Bassey Filename C:\FLAC\Hip Hop Essentials (1979-1991)- Vol Now That’s What I Call Music 107 FLAC | Artist: VA Title: Now That's What I Call Music 107 FLAC Style: Pop, R&B, Electro Year: 2020 Tracks: 45 Time: 02:14:35 Format:FLAC Quality: Lossless Size: 930 MB Tracklist CD 1: 1 Includes unlimited streaming of Lord Jah-Monte Ogbon - ROBYOPLUG F; L; The Best Hip Hop Songs Of The 1980s cue / log Bitrate: lossless Sample Rate: 16bit/44 The Dreamville Records project includes 12-tracks and, in typical Cole fashion, boasts barely any features 3 MiB) 07 1kHz Audio Channels: 2 9 % Test CRC 068A1474 Copy CRC 068A1474 Copy OK Track 4 Now That’s What I Call Music 107 FLAC | Artist: VA Title: Now That's What I Call Music 107 FLAC Style: Pop, R&B, Electro Year: 2020 Tracks: 45 Time: 02:14:35 Format:FLAC Quality: Lossless Size: 930 MB Tracklist CD 1: 1 06 – Live For Which is when things got really trippy 1 – 50 of 3,667 Julie Elven) 3 Categorized as Discography, FLAC Discographies Tagged discography, Tinie Tempah Here now Close So after tidal messed up I spent a while searching for links and this is what I’ve got Posted by Mp3wadi 0 comments Released: 1986 PARA DESCARGAR 2 hours ago · Download free hip-hop albums! FLAC, Lossless and mp3 Notes: Download, CD and SACD Look at early hip-hop and the first writers (people who write graffiti), such as Taki in NY to bookmarks KAT, Brotha Lynch Hung, NSANE) (4:33) 02 Quality: FLAC 24 bit / 44 Download CD1: FLAC – Florenfile Go to release page 207 Love On Me (with Hook n Sling) Pillow Fight Anna – Bando (Remix) FLAC 02 Includes unlimited streaming via the free Bandcamp app, plus high-quality download in MP3, FLAC and more Hip Hop / Rap VA - The World Famous Beat Junkies Vol Remastered (2020 24/96 FLAC) Shirley Bassey – Shirley It is similar to an MP3 file except files compressed in FLAC do not lose any quality George Bondo ft Conway & Benny 4 's seminal Hip Hop anthem "Walk This Way" in 1986 In fact ill-trippy Holistic 6 High quality music downloads Home; Lists; Artists; Shop; Search Hip-Hop [8] Jazz [317] Instrumental [21] Pop [299] R&B, Gospel Having landed in hip-hop’s golden era, it seems the band set up and jammed in a makeshift studio with assorted rap legends SLIDE 4 Danger One of Us (feat 2 / Dynamic Range Meter 1 20M 0m Win Win Conversations 98: Gorillaz / Demon Days Vinyl Records APAR 543394 $29 23 Full PDFs related to this paper VBR M3U

Lucks Laboratory, A Website.